Index du Forum forum de l'alliance Clan sur le serveur XI de ikariam

 FAQFAQ   RechercherRechercher   MembresMembres   GroupesGroupes   S’enregistrerS’enregistrer 
 ProfilProfil   Se connecter pour vérifier ses messages privésSe connecter pour vérifier ses messages privés   ConnexionConnexion 
 FAQIka-World   RechercherConvertisseur RC   MembresSimulateur Combat   GroupesForum Officiel FAQPanneau Admin
Leverage S01e02 The Homecoming J Avi

 
Poster un nouveau sujet   Répondre au sujet     Index du Forum -> Alliance -> Alliance
Sujet précédent :: Sujet suivant  
Auteur Message
heyzlenz


Hors ligne

Inscrit le: 08 Avr 2016
Messages: 155
Localisation: Roma

MessagePosté le: Sam 15 Juil - 02:03 (2017)    Sujet du message: Leverage S01e02 The Homecoming J Avi Répondre en citant




Leverage S01e02 The Homecoming J Avi > bit.ly/2tSHdN7









Leverage S01e02 The Homecoming J Avi, [??] [?? ??] ?? ?? ??? 2 ? [SS ?] ??

985d112f2e
she 447.Visit them at BitLord.com Torrent files 366.389 MB Trackers 1 seeders 0 leechers Comments 0 Gathering some infopeerstorrent hash87e2949a6ffb735e01c7747caf8d6e265243de65 tracker seeders leechers udp://tracker.coppersurfer.tk:6969/announce243 hours agoudp://tracker.leechers-paradise.org:80/announce126 hours agoudp://tracker.leechers-paradise.org:6969/announce029 hours agoudp://tracker.pirateparty.gr:6969/announce204 days agoudp://bt.firebit.co.uk:80/announce304 days ago torrent client compatible list udp://bt.firebit.co.uk:80/announce udp://tracker.coppersurfer.tk:6969/announce udp://tracker.leechers-paradise.org:6969/announce udp://tracker.leechers-paradise.org:80/announce udp://tracker.pirateparty.gr:6969/announce hide torrent client compatible list Torrentz2SearchmyTorrentzHelpLeverage The Experimental JobSeeders, leechers and torrent status is updated everyday

Torrent Trackers hash 87e2949a6ffb735e01c7747caf8d6e265243de65udp://bt.firebit.co.uk:80/announce3… udp://tracker.pirateparty.gr:6969/announce20 udp://tracker.coppersurfer.tk:6969/announce24 udp://tracker.leechers-paradise.org:80/announce12 udp://tracker.leechers-paradise.org:6969/announce02 last check 3 hours agoYou can get a Torrent compatible list hereX History Click for organised list & more linksTrends Latest searches Wiki Webmasters / Widgets API About Enable Javascript to use all of allucs featuresWe remember this by cookie, that means if you clear your cookies or don't keep cookies this setting might not persistCLUB-125CLUB-190Home DMCA Contact us Copyright 2007-2017 TorrentDownloads Lick FeetSome hosters may still display ads inside their players over which alluc has no controlSample info: Duration: 00:42:34.27, start: 0.000000, bitrate: 1147 kb/s Stream #0.0: Video: mpeg4, yuv420p, 624x352 [PAR 1:1 DAR 39:22], 23.98 tbr, 23.98 tbn, 23.98 tbc Stream #0.1: Audio: mp3, 48000 Hz, 2 channels, s16, 128 kb/s

ladies and gentleman malayalam full movie'aime (Original Motion Picture Soundtrack) (2006)tai game de che xanh ve may tinhdragonoid x4 silver edition.rarsolucionario fisica y quimica 1 bachillerato anaya rapidsharevery full nangi sexy video download of womenthe sims 3 university life mac torrentchristine mendoza milk photo shoot 2hawx 2 trainer 1.01 dx11-adds{http filecom net hy7zi3} hit


Revenir en haut
Publicité






MessagePosté le: Sam 15 Juil - 02:03 (2017)    Sujet du message: Publicité

PublicitéSupprimer les publicités ?
Revenir en haut
Montrer les messages depuis:   
Poster un nouveau sujet   Répondre au sujet     Index du Forum -> Alliance -> Alliance Toutes les heures sont au format GMT + 2 Heures
Page 1 sur 1

 
Sauter vers:  

Index | Panneau d’administration | creer un forum | Forum gratuit d’entraide | Annuaire des forums gratuits | Signaler une violation | Conditions générales d'utilisation
Powered by phpBB © 2001, 2005 phpBB Group
Traduction par : phpBB-fr.com